#TITLE:Out Law;
#SUBTITLE:(SC Style);
#ARTIST:Croove;
#TITLETRANSLIT:;
#SUBTITLETRANSLIT:;
#ARTISTTRANSLIT:;
#CREDIT:;
#BANNER:Out Law (SC Style).png;
#BACKGROUND:Out Law (SC Style)-bg.png;
#LYRICSPATH:;
#CDTITLE:NVLM-cdtitle.png;
#MUSIC:Out Law (SC Style).mp3;
#OFFSET:-0.385;
#SAMPLESTART:38.466;
#SAMPLELENGTH:12.000;
#SELECTABLE:YES;
#BPMS:0.000=126.000;
#STOPS:;
#BGCHANGES:;
// cache tags:
#FIRSTBEAT:4.000;
#LASTBEAT:243.750;
#SONGFILENAME:Songs/nhac/Out Law/Out Law (SC Style).sm;
#HASMUSIC:1;
#HASBANNER:1;
#MUSICLENGTH:116.897;
// end cache tags

//---------------dance-single - ----------------
#NOTES:
     dance-single:
     :
     Hard:
     13:
     1.000,0.989,1.000,0.017,1.000,667.000,160.000,2.000,0.000,1.000:
0000
0000
0000
0000
,
0000
0000
0000
0000
,
1010
0000
1000
0100
1000
0001
0010
0100
0010
0100
1000
0010
1000
0100
0010
0001
,
0100
0010
0000
1000
0100
0000
0010
0001
0010
0001
0010
0000
0100
1000
0000
0000
,
1001
0000
0100
0001
0000
0100
0010
0000
1000
0100
1000
0100
1000
0010
0000
0100
,
0001
0001
1000
0000
0110
0000
0011
0000
0100
1000
0100
0010
0001
0100
0010
0000
,
1000
0000
0100
1000
0100
0000
0010
0000
0001
0100
0000
0100
0010
1000
0100
0010
,
0001
0000
0001
0100
1000
0000
0100
0000
0010
1000
0000
1000
0100
0010
0001
0100
,
0010
1000
0100
0010
0001
0000
0011
0000
0100
1000
0000
1000
0010
0100
0001
0010
,
0100
0000
1000
0000
0001
0100
0001
0000
0010
0100
0000
0100
1000
0010
0100
0001
,
0010
0000
0100
1000
0100
0001
0100
0000
0010
1000
0000
1000
0100
0010
0001
0100
,
0100
0000
0010
0000
1000
0001
0010
0000
0100
1000
0000
1000
0001
0100
0010
1000
,
1100
0000
0001
0000
0100
0010
0000
1000
1000
0000
0001
0000
0010
0100
0000
1000
,
0001
1000
0100
0000
0010
0010
0000
1000
0100
0010
0001
0000
0001
0100
0000
0001
,
1000
0000
0100
0010
0001
0000
0010
0000
0100
1000
0000
0100
0010
0000
0001
0010
,
0100
1000
0010
1000
0100
0010
0001
0000
1000
0100
0000
0010
0010
0000
0001
0010
,
0100
1000
0010
0000
1000
0100
0000
0001
0100
0000
0010
0000
1000
0100
0000
0010
,
0001
0100
0001
0100
0001
0000
1000
0000
0100
0010
0001
0000
1000
0010
0000
1000
,
0100
0000
0010
0000
0001
0000
0010
0000
1100
0000
1001
0000
0100
0010
0100
0000
,
0001
1000
0001
0100
0001
0010
0001
1000
0100
0010
0001
1000
1010
0000
0000
0000
,
0101
0000
1001
0000
0101
0000
1001
0000
1100
1100
0000
0110
0110
0000
0011
0000
,
1001
0000
1010
0000
1001
0000
1010
0000
0110
0110
0000
0101
0101
0000
1001
0000
,
1100
0000
1010
0000
1100
0000
1010
0000
0101
0101
0000
1001
1001
0000
1100
0000
,
0101
0000
0011
0000
0101
0000
0011
0000
0110
0110
0000
1100
1100
0000
0000
0000
,
1001
0000
0011
0000
1001
0000
0011
0000
0110
0110
0000
0101
0101
0000
1001
0000
,
1010
0000
0110
0000
1010
0000
0110
0000
0101
0101
0000
1001
1001
0000
1100
0000
,
0110
0000
0011
0000
0110
0000
0011
0000
1001
1001
0000
1010
1010
0000
0110
0000
,
0000
0000
0101
1000
0000
1000
0100
0000
0010
0001
0010
0100
1000
1001
0000
0000
,
0100
0000
0010
1000
0010
1000
0001
0100
0001
0100
0001
0000
1000
0000
0100
0000
,
0010
0000
0011
0000
0001
0100
0010
0000
1000
0100
1100
0000
0001
0100
0101
0000
,
0010
0000
1001
0000
0100
0100
0100
0100
0100
0100
0100
0100
0100
0000
0010
0000
,
2002
0000
0000
0000
0000
0000
0100
0000
3003
0000
0000
0000
0100
0010
1000
0100
,
0001
0100
1000
0100
0000
0010
0010
0000
0001
0000
0101
0000
1000
0100
0010
0000
,
0001
0000
0100
0000
0010
1000
1000
0100
1000
1000
0001
0100
0001
0010
0100
0000
,
1100
0000
1000
1000
0001
0100
0001
0001
0010
0100
1000
1000
0010
0100
0001
0000
,
0100
0100
0010
1000
1000
0100
1000
0001
0010
0100
1000
0001
1001
0000
0000
0000
,
0100
0010
1000
0000
0001
0010
0000
0001
0100
0010
1000
0000
0100
1000
0000
0100
,
0010
0001
1000
0000
0001
0010
0000
0001
0100
0010
1000
0001
1000
0100
0010
0000
,
0001
0100
0100
0000
0010
0001
0000
0010
1000
0100
0001
0000
0100
0000
0000
0010
,
0001
0100
0010
0000
1000
0001
0000
1000
0100
0010
0001
1000
0001
0100
0001
0000
,
0100
0010
1000
0001
1000
0100
0000
1000
0010
0000
0100
0001
0010
0100
0000
1000
,
0100
0010
0010
0001
0100
0010
0000
0010
1000
0100
1000
0001
0010
0100
0000
1000
,
0001
0000
0100
0010
0010
1000
0100
1000
0001
0010
0100
0000
0110
0000
1010
0000
,
1001
1000
0001
1000
0010
0000
0100
0000
1000
0100
0010
0001
0011
0000
0000
0000
,
1001
0000
0101
0000
1001
0000
1100
0000
0110
0110
0000
0011
0011
0000
1001
0000
,
0101
0000
0110
0000
0101
0000
1001
0000
1100
1100
0000
0011
0011
0000
0101
0000
,
0110
0000
1010
0000
1100
0000
1001
0000
0101
0101
0000
0110
0110
0000
1010
0000
,
1001
0000
0100
0001
0000
0001
1000
0000
1000
0100
0000
0100
0010
0001
0011
0000
,
0101
0000
1001
0000
1100
0000
0101
0000
1001
1001
0000
1100
1100
0000
0110
0000
,
0011
0000
1001
0000
1010
0000
0011
0000
0101
0101
0000
0110
0110
0000
1010
0000
,
1100
0000
0101
0000
1100
0000
0101
0000
1001
1001
0000
0011
0011
0000
0110
0000
,
0000
0000
1000
0001
0000
0100
0010
0000
1000
0100
0010
0001
0010
0100
1000
1001
,
0000
0000
0000
0000
0000
0000
0000
1001
,
1000
0100
0010
0001
0100
0010
1000
0001
0010
0100
1100
0000
1001
0000
0010
0100
,
0001
1000
0100
0001
0100
1000
0010
0100
0001
0010
0110
0000
1100
0000
1000
0010
,
0100
0001
0010
0100
1000
1000
0010
0100
0001
1000
1100
0000
0110
0000
0001
0010
,
0100
1000
0001
0100
0010
0001
0010
1000
0100
0010
0011
0000
1001
0000
1000
0010
,
0100
0001
0010
1000
0010
0001
0100
0010
1000
0100
0110
0000
0110
0000
0001
0100
,
1000
0100
0010
1000
0001
0010
0100
1000
0010
0100
0101
0000
1001
0000
1000
0100
,
0010
0001
0100
0100
0010
1000
0100
1000
0001
0010
0110
0000
0110
0000
1000
0100
,
0010
1000
0010
0001
0100
0010
1000
0100
0010
0001
1001
0000
1010
0000
1100
0000
;

//---------------dance-single - ----------------
#NOTES:
     dance-single:
     :
     Challenge:
     20:
     1.000,1.000,1.000,0.009,1.000,1176.000,609.000,1.000,0.000,79.000:
0000
0000
0000
0000
,
1001
0000
0100
0000
0010
0001
1000
0000
0100
0000
0010
1000
0001
1000
0010
0000
0100
0001
1000
0000
1001
0000
0010
0000
0110
0001
1000
0000
1011
0000
0100
0000
,
1100
0000
1000
0001
0010
0000
0100
0010
1001
0000
0001
0000
0110
0000
1000
0000
0011
0000
0101
0000
0110
0000
1010
0000
1100
0000
0101
0000
1001
0000
0110
0000
,
0100
0001
0100
0010
1000
1000
0001
0010
0100
0000
1000
0000
1001
0000
0011
0000
0110
0000
1100
0000
1001
0000
0110
0000
1100
0011
1100
0011
1100
0011
1100
0011
,
1100
0000
0010
0000
0101
0000
1010
0000
0100
0000
0001
0000
1010
0000
1101
0000
0100
0010
0001
0000
1000
0010
0100
0000
1001
0100
0010
0100
0010
1000
0101
0000
,
1110
0000
1000
0000
0001
0000
0110
0000
1100
0000
1111
0000
0011
0000
1000
0000
0110
0001
0100
0000
1000
0100
0010
0000
0001
0100
1000
0100
0011
1000
0101
0000
,
1110
0000
0010
0000
0101
0000
1000
0000
1101
0000
0010
0000
0010
0000
0100
0000
1001
0010
0100
0000
1000
0100
0010
0000
0101
0010
0100
1000
0101
0010
1001
0000
,
1101
0000
0100
0000
0010
0000
1001
0000
0100
0000
1100
0000
0001
0000
0110
0000
1100
0001
0010
0000
0011
0100
1000
0000
0011
0001
0100
0010
1000
0100
1001
0000
,
1101
0000
0010
0000
0001
1000
0100
0000
0110
0000
1001
0000
1100
0000
0010
0000
1001
0100
1000
0000
0010
0100
0001
0000
1100
0100
0010
0001
0001
0010
1110
0000
,
1001
0000
0010
0000
1110
0000
0001
0000
0111
0000
1000
0000
0010
0000
0100
0000
0101
1000
0010
0000
0001
0010
0100
0000
1010
0010
0001
0100
1000
1000
0110
0000
,
0011
0000
0001
1000
0100
0000
1011
0000
1000
0000
0110
0000
0001
0000
0101
0000
1100
0010
0001
0000
0100
1000
1010
0000
0001
0100
0010
0001
1100
0010
0110
0000
,
1010
0100
0001
0000
0010
0100
1001
0000
1100
0000
0010
0000
0100
1000
0001
0000
1110
0000
0100
1000
0010
0000
1001
0000
1100
0011
1100
0011
1100
0011
1100
0011
,
1100
0000
0001
0000
0111
0000
1000
0000
0010
0100
0001
0010
0100
1000
0010
0100
1001
0000
0100
0000
0011
0000
0100
0000
1000
0100
0011
0000
0001
0010
1100
0000
,
1001
0000
0010
0000
0110
0000
1000
0000
0001
0010
0100
0001
1000
0100
0010
0001
0100
0000
1000
0000
1010
0000
0011
0000
0100
0001
1001
0000
0010
0100
1100
0000
,
1001
0000
0010
0100
0011
0000
0100
0010
1000
0000
0001
0000
0101
0010
1000
0100
0001
0100
0010
1000
0101
0010
0100
1000
1001
0000
0110
0000
0001
0000
1000
0000
,
1111
0000
0001
0000
0100
0000
0010
0000
1001
0100
0010
1000
1001
0010
0100
1000
1001
0000
0001
0010
0100
0000
0010
0000
1101
0000
1000
0000
0110
0000
0001
0000
,
1001
0000
1111
0000
1110
0000
0001
0000
0110
1000
0010
0001
0100
1000
0010
1101
1001
0000
0100
0000
0010
0000
1001
0000
0100
0000
0011
0000
1001
0000
0010
0000
,
1110
0000
1000
0000
0111
0000
0001
0100
0010
1000
1000
0001
0010
0100
1000
0000
1001
0000
0110
0000
0101
0000
1010
0000
1100
0000
0001
0000
0010
0000
0100
0000
,
1101
0010
1001
0000
1001
0000
0100
0010
0100
0001
0100
0010
1000
0000
0001
0000
0110
0000
0110
0000
0110
0000
1000
0001
0010
0100
1000
0001
1100
0000
0001
0000
,
1110
0000
1110
0000
0111
0000
0111
0000
1100
0010
0001
1100
0010
0001
1100
0010
0001
0000
1110
0000
1001
0010
0100
1000
0010
0000
1001
0000
1110
0000
0011
0000
,
1100
0110
0011
0000
0101
0000
1010
0000
1100
0110
1001
0011
0110
1001
1100
0011
,
0101
0101
1010
0000
1100
0000
0011
0000
0101
0110
1010
1100
0101
0011
0110
1100
,
1001
1001
0011
0000
0110
0000
1100
0000
1010
1100
0101
0011
0110
1100
1010
0110
,
0101
1001
1001
0000
0110
0000
0011
0000
1100
0011
0101
0110
1010
1100
0101
1001
,
0011
0110
0110
0000
1010
0000
0101
0000
1001
0011
0110
1100
1010
0101
0011
0110
,
1100
1100
1010
0000
0110
0000
0101
0000
1001
0101
0110
0011
0101
1100
1010
0110
,
0101
0101
0011
0000
0110
0000
1100
0000
1001
0101
0110
0011
0101
1100
1010
0101
,
1001
0000
0110
0000
1001
0100
0010
0000
0100
0000
1001
0100
0010
0000
0100
0000
1001
0100
0010
0000
0100
0000
1001
0100
0010
0000
1001
0100
0010
0000
0100
0000
,
1001
0010
0100
0000
1000
0000
0010
0000
0100
0000
1001
0000
0010
0100
1000
0100
1000
0001
0100
0000
0110
0000
1001
0000
0110
0000
1111
0000
0011
0000
1100
0000
,
1001
0000
0010
0100
0010
0100
1000
0010
0100
0000
0001
0000
1000
0000
0100
0000
0011
0000
0011
0000
1000
0000
0110
0000
0001
0000
1001
0100
0010
0000
1100
0000
,
1000
0000
0010
0000
0101
0000
1000
0000
0101
0000
0011
0000
1001
0000
0101
0000
0011
1000
0011
1000
0011
0000
0101
0000
1001
0000
0101
0000
0011
0000
1001
0000
,
0101
0000
0010
0000
1200
0001
1000
0001
0010
0000
1000
0000
0001
0000
0010
0000
1001
0000
0300
0000
0010
1000
0010
1000
1111
0000
0001
0000
0110
0000
1001
0000
,
1100
0010
0100
0010
0001
0100
0010
1000
0010
0000
1100
0000
0011
0000
1101
0000
1110
0000
0111
0000
1101
0000
1111
0000
1110
0000
0111
0000
1101
0000
1011
0000
,
1100
0000
0010
0000
0001
0100
1100
0000
0010
1000
0010
1000
0110
0000
1001
0000
1100
0010
0100
1000
0001
0010
0100
1000
0001
0010
0100
1000
1001
0000
0110
0000
,
1100
0000
1100
0000
0110
0000
0110
0000
0011
0000
0011
0000
0101
0000
0101
0000
1100
0010
0001
1100
0010
0001
1100
0010
1001
0000
0110
0000
1000
0100
1001
0000
,
0110
0000
0110
0000
1100
0000
1100
0000
1001
0000
1001
0000
0101
0000
0101
0000
0011
1100
0011
1100
0011
1100
0011
1100
0011
0000
1100
0000
1010
0000
0110
0000
,
1101
0000
0001
0010
1000
0000
0100
0000
1011
0000
0111
0000
1000
0000
0010
0000
0100
0001
0100
0001
0110
0000
1000
0000
0001
0010
0100
1000
1001
0000
0110
0000
,
1100
0000
0001
0000
1001
0000
0010
0000
0110
0000
1000
0000
1101
0000
0011
0000
0110
1000
0010
1000
0101
0000
1000
0000
1010
0001
0010
0001
0100
0000
1001
0000
,
1010
0100
0001
0010
0100
0000
1001
0000
0011
0000
0110
0000
1000
0000
0001
0000
0101
1000
0100
1000
0010
0000
1001
0000
1100
0010
0100
0010
0001
0000
1010
0000
,
1101
0001
0010
0100
1000
0001
0101
0000
0110
0000
1000
0000
0011
1000
0001
0000
0110
1000
0100
1000
0001
0000
0110
0000
1001
0100
0010
0100
0010
0000
1001
0000
,
0101
0010
0100
0010
1000
0100
1001
0110
0101
0000
0010
0000
1100
0010
0001
0000
0101
1000
0100
0010
1001
0000
0010
0000
0110
0001
0100
0001
1010
0000
1101
0000
,
0110
0010
1000
0100
0001
1001
0100
0010
1001
0010
0010
0000
1100
0000
0001
0000
0010
0100
0010
0100
1001
0000
1100
0000
0010
0001
0010
0001
1101
0000
1010
0000
,
1111
0000
0001
0000
1110
0000
1111
0000
0001
0010
0100
1000
1001
0000
0110
0000
1001
0100
0010
0001
1000
0100
0011
0000
1001
0110
1001
0000
0110
0000
0001
0000
,
1100
0000
1010
0000
1100
0000
1010
0000
0011
0000
0101
0000
0011
0000
0101
0000
1010
0100
0001
1010
0100
0001
1010
0100
1111
0000
1111
0000
1111
0000
1111
0000
,
1100
0000
1100
0000
0110
0000
0000
1000
0101
0000
0000
0000
1010
0000
1100
0000
0011
0000
0101
0000
0110
0000
1100
0000
1010
0000
0110
0000
1101
0000
1001
0000
,
1010
0000
1010
0000
0110
0000
0000
1000
0101
0000
0000
0000
1100
0000
1010
0000
0011
0000
0101
0000
0110
0000
1100
0000
1010
0000
0101
0000
1011
0000
1100
0000
,
0110
0000
0011
0000
0011
0000
0000
1000
0101
0000
0000
0000
0110
0000
1010
0000
1100
0000
0101
0000
1001
0000
1100
0000
0110
0000
0011
0000
1001
0000
1110
0000
,
0110
0000
0011
0000
0011
0000
0000
1000
0101
0000
0000
0000
1100
0000
1010
0000
0110
0000
0101
0000
0011
0000
1100
0000
0011
0100
1000
0011
0100
1000
0011
0100
,
1001
0000
1001
0000
0110
0000
0000
0001
1100
0000
0000
0000
1010
0000
0101
0000
0011
0000
0110
0000
1100
0000
1010
0000
0110
0000
0101
0000
1001
0000
1100
0000
,
0110
0000
1010
0000
1010
0000
0000
0010
0101
0000
0000
0000
0011
0000
0110
0000
1100
0000
1010
0000
0110
0000
0101
0000
1001
0000
1100
0000
0110
0000
1010
0000
,
0110
0000
0101
0000
0101
0000
0000
0010
1100
0000
0000
0000
1010
0000
0101
0000
0011
0000
0110
0000
1100
0000
1010
0000
0110
0000
0101
0000
1001
0000
1100
0000
,
0110
0000
0011
0000
1001
0100
0010
0000
0100
0000
1001
0010
0100
0000
0010
0000
1001
0100
0010
0000
0100
0000
1001
0100
0010
0000
1001
0100
0010
0000
1111
0000
,
0000
0000
0000
0000
0000
0000
0000
0000
0000
0000
0000
0000
0000
0000
1111
1111
,
1001
0000
0000
0000
0000
0000
0100
0000
0000
0000
0000
0000
0010
0000
0000
0000
0000
0000
0000
0000
0000
0000
0000
0000
1100
0000
0000
0000
0000
0000
0001
0000
0000
0000
0000
0000
1100
0000
0000
0000
0000
0000
0000
0000
0000
0000
0000
0000
0011
0000
0000
0000
0000
0000
0000
0000
0000
0000
0000
0000
0101
0000
0000
0000
0000
0000
0000
0000
0000
0000
0000
0000
0110
0000
0000
0000
0000
0000
0000
0000
0000
0000
0000
0000
1000
0000
0000
0000
0000
0000
0100
0000
0000
0000
0000
0000
0001
0000
0000
0000
0000
0000
0010
0000
0000
0000
0000
0000
0100
0000
0000
0000
0000
0000
0000
0000
0000
0000
0000
0000
0001
0000
0000
0000
1100
0000
0000
0000
0000
0000
0000
0000
0010
0000
0000
0000
0000
0000
1100
0000
0000
0000
0000
0000
0001
0000
0000
0000
1100
0000
0000
0000
0000
0000
0000
0000
1000
0000
0000
0000
0000
0000
0000
0000
0000
0000
0000
0000
0010
0000
0000
0000
0000
0000
0000
0000
0000
0000
0000
0000
1101
0000
0000
0000
0000
0000
0000
0000
0000
0000
0000
0000
,
1010
0000
0000
0000
0000
0000
0001
0000
0000
0000
0000
0000
0100
0000
0000
0000
0000
0000
0000
0000
0000
0000
0000
0000
0011
0000
0000
0000
0000
0000
1000
0000
0000
0000
0000
0000
0101
0000
0000
0000
0000
0000
0000
0000
0000
0000
0000
0000
0110
0000
0000
0000
0000
0000
0000
0000
0000
0000
0000
0000
1010
0000
0000
0000
0000
0000
0001
0000
0000
0000
0000
0000
1100
0000
0000
0000
0000
0000
0000
0000
0000
0000
0000
0000
0001
0000
0000
0000
0000
0000
0000
0000
0000
0000
0000
0000
0011
0000
0000
0000
0000
0000
0000
0000
0000
0000
0000
0000
1000
0000
0000
0000
0000
0000
0000
0000
0000
0000
0000
0000
0110
0000
0000
0000
0000
0000
0000
0000
0000
0000
0000
0000
0001
0000
0000
0110
0000
0000
0000
0000
0000
0000
0000
0000
1000
0000
0000
0000
0110
0000
0000
0000
0000
0000
0000
0000
1000
0000
0000
0000
0000
0000
0000
0000
0000
0000
0000
0000
0001
0000
0000
0000
0000
0000
0000
0000
0000
0000
0000
0000
0110
0000
0000
0000
0000
0000
1000
0000
0000
0000
0000
0000
,
0011
0000
0000
0000
0000
0000
0001
0000
0000
0000
0000
0000
0100
0000
0000
0000
0000
0000
0000
0000
0000
0000
0000
0000
1001
0000
0000
0000
0000
0000
0000
0000
0000
0000
0000
0000
1010
0000
0000
0000
0000
0000
0001
0000
0000
0000
0000
0000
0100
0000
0000
0000
0000
0000
1000
0000
0000
0000
0000
0000
0001
0000
0000
0000
0000
0000
0000
0000
0000
0000
0000
0000
0011
0000
0000
0000
0000
0000
0000
0000
0000
0000
0000
0000
1100
0000
0000
0000
0000
0000
0000
0000
0000
0000
0000
0000
1011
0000
0000
0000
0000
0000
0000
0000
0000
0000
0000
0000
0010
0000
0000
0000
0000
0000
0000
0000
0000
0000
0000
0000
1101
0000
0000
0000
0000
0000
0000
0000
0000
0000
0000
0000
0010
0000
0000
1100
0000
0000
0000
0000
0000
0000
0000
0000
0010
0000
0000
0000
1100
0000
0000
0000
0000
0000
0000
0000
0001
0000
0000
0000
0000
0000
0000
0000
0000
0000
0000
0000
0010
0000
0000
0000
0000
0000
0101
0000
0000
0000
0000
0000
1000
0000
0000
0000
0000
0000
0000
0000
0000
0000
0000
0000
,
0110
0000
0110
0000
1001
0010
0100
1001
0010
0100
1001
0010
0100
1001
0010
0100
1001
0000
1001
0000
0011
0100
0011
0000
0110
1000
0110
0001
1100
0000
1011
0000
,
0111
0000
0000
0000
0000
0000
0100
0000
0000
0000
0000
0000
1000
0000
0000
0000
0000
0000
0000
0000
0000
0000
0000
0000
0010
0000
0000
0000
0000
0000
0000
0000
0000
0000
0000
0000
0101
0000
0000
0000
0000
0000
0000
0000
0000
0000
0000
0000
1001
0000
0000
0000
0000
0000
0100
0000
0000
0000
0000
0000
0010
0000
0000
0000
0000
0000
0000
0000
0000
0000
0000
0000
1000
0000
0000
0000
0000
0000
0000
0000
0000
0000
0000
0000
0101
0000
0000
0000
0000
0000
1000
0000
0000
0000
0000
0000
0011
0000
0000
0000
0000
0000
0000
0000
0000
0000
0000
0000
0100
0000
0000
0000
0000
0000
0000
0000
0000
0000
0000
0000
1110
0000
0000
0000
0000
0000
0000
0000
0000
0000
0000
0000
0001
0000
0000
1010
0000
0000
0000
0000
0000
0000
0000
0000
0100
0000
0000
0000
1010
0000
0000
0000
0000
0000
0000
0000
0100
0000
0000
0000
0000
0000
0000
0000
0000
0000
0000
0000
1001
0000
0000
0000
0000
0000
0010
0000
0000
0000
0000
0000
0100
0000
0000
0000
0000
0000
0000
0000
0000
0000
0000
0000
,
1100
0000
0000
0000
0000
0000
1000
0000
0000
0000
0000
0000
0010
0000
0000
0000
0000
0000
0100
0000
0000
0000
0000
0000
0001
0000
0000
0000
0000
0000
1000
0000
0000
0000
0000
0000
0011
0000
0000
0000
0000
0000
0000
0000
0000
0000
0000
0000
0110
0000
0000
0000
0000
0000
0000
0000
0000
0000
0000
0000
1101
0000
0000
0000
0000
0000
0000
0000
0000
0000
0000
0000
1000
0000
0000
0000
0000
0000
0010
0000
0000
0000
0000
0000
0100
0000
0000
0000
0000
0000
0000
0000
0000
0000
0000
0000
1001
0000
0000
0000
0000
0000
0000
0000
0000
0000
0000
0000
1000
0000
0000
0000
0000
0000
0000
0000
0000
0000
0000
0000
0111
0000
0000
0000
0000
0000
0000
0000
0000
0000
0000
0000
1000
0000
0000
0011
0000
0000
0000
0000
0000
0000
0000
0000
1000
0000
0000
0000
0011
0000
0000
0000
0000
0000
0000
0000
0100
0000
0000
0000
0000
0000
0000
0000
0000
0000
0000
0000
0001
0000
0000
0000
0000
0000
0010
0000
0000
0000
0000
0000
1100
0000
0000
0000
0000
0000
0000
0000
0000
0000
0000
0000
,
1010
0000
0000
0000
0000
0000
0001
0000
0000
0000
0000
0000
0100
0000
0000
0000
0000
0000
0100
0000
0000
0000
0000
0000
1001
0000
0000
0000
0000
0000
0010
0000
0000
0000
0000
0000
0100
0000
0000
0000
0000
0000
0000
0000
0000
0000
0000
0000
1100
0000
0000
0000
0000
0000
0001
0000
0000
0000
0000
0000
1010
0000
0000
0000
0000
0000
0000
0000
0000
0000
0000
0000
0011
0000
0000
0000
0000
0000
0000
0000
0000
0000
0000
0000
0100
0000
0000
0000
0000
0000
0001
0000
0000
0000
0000
0000
1000
0000
0000
0000
0000
0000
0000
0000
0000
0000
0000
0000
0010
0000
0000
0000
0000
0000
0000
0000
0000
0000
0000
0000
1101
0000
0000
0000
0000
0000
0000
0000
0000
0000
0000
0000
1000
0000
0000
0101
0000
0000
0000
0000
0000
0000
0000
0000
0010
0000
0000
0000
0101
0000
0000
0000
0000
0000
0000
0000
1000
0000
0000
0000
0000
0000
0000
0000
0000
0000
0000
0000
0001
0000
0000
0000
0000
0000
1010
0000
0000
0000
0000
0000
0100
0000
0000
0000
0000
0000
0000
0000
0000
0000
0000
0000
,
1110
0000
0011
0000
1100
0011
1100
0011
1100
0011
1100
0000
1011
0000
0111
0000
1110
0000
1101
0000
0111
0000
1101
0000
1111
0000
1010
0000
0111
0000
1111
0000
;

//---------------dance-single - ----------------
#NOTES:
     dance-single:
     :
     Medium:
     9:
     0.640,0.729,0.376,0.034,0.453,476.000,44.000,4.000,0.000,0.000:
0000
0000
0000
0000
,
0000
0000
0000
0000
,
1000
0000
0010
0000
0100
0000
0001
0010
0000
0001
0010
0000
0100
0000
0000
0000
,
1000
0100
0010
0000
0001
0100
0101
0000
,
1000
0000
0100
1000
0000
0000
0001
0000
0100
0000
0010
0000
1000
0000
0100
0000
,
0010
0001
0010
0000
0100
0000
1000
0000
0001
0000
0100
0000
0110
0000
0000
0000
,
1000
0100
1000
0100
1000
0000
0001
0000
0100
0000
1000
0000
0100
0000
0010
0000
,
1000
0001
0010
0100
1000
0001
0101
0000
,
0010
0100
0010
0100
0010
0000
1000
0000
0100
0000
0001
0000
0100
0000
1000
0000
,
0001
0010
0000
0001
0100
0000
0010
0000
1000
0000
0100
0000
0001
0000
0000
0000
,
0100
0000
0100
0010
0000
1000
0001
0000
0010
0000
0100
0000
1000
0000
0000
0000
,
0001
0100
1100
0000
1000
0010
0011
0000
,
0100
0000
0100
0000
0100
1000
0000
0000
0001
0000
0001
0000
0001
0100
0000
0000
,
0010
0000
0010
0000
0010
0001
0000
0000
1000
0000
0100
0000
0010
0000
0001
0000
,
0100
0000
0100
0000
0100
0010
0000
0000
1000
0000
1000
0000
1000
0001
0000
0000
,
0010
0100
0010
0000
1000
0100
1000
0000
0001
0000
0100
0000
1000
0000
0000
0000
,
0001
0100
0002
0000
1003
0100
0020
0000
,
0031
0100
1000
0100
0001
0100
1000
0000
,
0010
0000
0100
0000
0001
0000
0000
0000
1100
0000
0110
0000
0010
0001
0000
0000
,
0001
1000
0000
0001
0010
0000
0100
0000
1000
0000
0001
0000
0011
0000
0000
0000
,
0100
0000
0010
0000
0001
0000
1000
0000
0010
0100
0000
0010
0100
0000
0010
1000
,
0001
0000
1000
0000
0100
0000
0010
0000
0001
1000
0000
0001
1000
0000
0001
0010
,
0100
0000
1000
0000
0010
0000
0100
0000
0001
0010
0000
0001
0010
0000
0001
1000
,
0100
0000
0010
0000
0001
0000
0100
0000
0010
1000
0000
0010
1000
0000
0000
0000
,
0001
0000
0001
0000
0100
0000
0010
0000
1000
0100
0000
1000
0001
0000
0100
0010
,
0100
0000
1000
0000
0100
0000
0001
0000
1000
0010
0000
1000
0100
0000
0010
0001
,
0010
0000
0100
0000
1000
0000
0001
0000
0100
0010
0000
1000
0100
0000
1000
0001
,
0000
0000
0101
0000
0000
1100
0000
0000
1010
0000
0000
0110
0000
0110
0000
0000
,
0001
0000
0010
0000
0100
1000
0100
1000
0100
1000
0100
1000
0100
1000
0100
1000
,
0001
0001
0001
0000
0100
0100
0100
0000
,
0000
0000
1001
0000
0100
0010
0100
0010
0100
0010
0100
0010
0100
0010
0100
0000
,
2002
0000
3003
0110
,
1000
0000
0100
0000
0010
0000
1000
0000
0010
0000
0001
0000
0100
0010
0100
0000
,
0001
0000
0001
0000
1000
0100
1000
0100
0010
0001
0010
0001
0010
0001
0100
0000
,
0001
0000
1000
0010
1000
0010
0100
0001
0100
0100
0001
1000
0001
1000
0010
0000
,
0100
0001
0100
0001
1000
0100
1000
0100
0010
0001
0010
0001
0010
0000
0000
0000
,
0100
0001
1000
0000
0001
0000
0010
0000
,
0100
1000
1000
0000
0001
0000
0100
0000
,
1000
1000
1000
0000
0010
0000
0001
0000
,
0100
0100
0010
0000
1000
0000
0001
0000
,
0100
1000
0001
0110
,
1000
0100
0001
1001
,
0100
0000
0010
1001
1001
0000
0100
0000
,
0010
0001
0010
0000
0001
1000
0001
0000
0100
0000
0000
0000
0110
0000
0000
0000
,
0001
0000
0010
0000
0100
0000
1000
0000
0001
0100
0000
0001
0010
0000
0100
1000
,
0100
0000
1000
0000
0010
0000
0100
0000
0001
1000
0000
0001
0010
0000
0100
1000
,
1000
0000
0010
0000
0100
0000
0001
0000
1000
0100
0000
0010
0001
0000
0100
0010
,
0100
0001
0010
0100
1000
0001
0100
0000
,
0010
0000
1000
0000
0010
0000
0001
0000
0100
0010
0000
0100
1000
0000
0100
0001
,
0010
0000
1000
0000
0100
0000
0010
0000
0001
0100
0000
0001
0010
0000
0100
1000
,
0001
0000
0100
0000
0010
0000
1000
0000
1000
0100
0000
0010
0001
0000
0010
0100
,
0000
0000
1100
0000
0000
1001
0000
0000
0101
0000
0000
0110
0000
0110
0000
0000
,
0000
0000
0000
0000
0000
0000
0000
1001
,
1000
0000
0010
0100
0001
0000
0010
0000
0100
0000
1001
0000
1001
0000
0000
0000
,
0100
0000
0010
1000
0100
0000
0001
0000
0100
0000
1010
0000
1010
0000
0000
0000
,
0001
0000
0010
0100
1000
0000
0001
0000
0100
0000
1001
0000
0011
0000
0000
0000
,
0100
0000
0010
1000
1000
0000
0001
0000
0010
0000
1100
0000
1001
0000
0000
0000
,
0100
0000
0010
0001
0001
0000
0100
0000
0010
0000
1001
0000
1010
0000
0000
0000
,
0100
0000
0001
0010
0100
0000
1000
0000
0001
0000
0110
0000
0110
0000
0000
0000
,
1000
0000
0001
0100
0010
0000
1000
0000
0100
0000
0011
0000
1001
0000
0000
0000
,
0001
0010
0100
1000
0100
0000
0010
0000
0001
0000
0110
0000
1100
0000
1001
0000
;

//---------------dance-single - ----------------
#NOTES:
     dance-single:
     :
     Easy:
     5:
     0.353,0.365,0.248,0.077,0.000,247.000,29.000,9.000,0.000,2.000:
0000
0000
0000
0000
,
0000
0000
0000
0000
,
1000
0001
1000
1000
,
0000
1111
0000
1111
,
1000
0100
0001
0000
,
0010
0010
0100
0000
,
0001
1000
0001
0000
0000
0000
0100
0000
,
0010
0010
0010
0000
1000
0000
0001
0000
,
0100
0010
0100
0000
0010
0000
0000
0000
,
1000
0100
0001
0100
,
0010
0010
0001
0100
,
0010
1000
1001
0100
,
0010
0001
0000
0001
0000
0100
0000
0100
,
0000
0010
0000
1000
0000
0001
0000
0010
,
0000
0100
0000
1000
0000
0001
0000
0100
,
0010
1000
1100
0001
,
0100
0000
0010
0000
0001
0000
1000
1000
,
1000
0010
0100
1000
,
0100
0001
0010
0100
,
1100
0001
1000
1010
,
0100
0001
0001
0000
1000
0000
1010
0000
,
0100
0100
0001
0000
0010
0000
0110
0000
,
1000
1000
0001
0000
0010
0000
1010
0000
,
0000
0100
0010
0001
,
1000
1000
0100
0000
0010
0000
0011
0000
,
0100
0100
0001
0000
1000
0000
1010
0000
,
0001
0001
0100
0000
0010
0000
1010
0000
,
0000
0100
0000
0100
,
0001
0000
1000
0000
0100
0000
0000
0100
,
0000
0010
0000
0010
0000
0000
0001
0000
,
0000
0100
0100
0100
0100
0100
0100
0100
,
2002
0000
3003
0110
,
1000
0100
0000
0000
0001
0000
0000
0100
,
0000
0010
0000
1000
0000
0001
0100
0000
,
0000
0010
0000
0000
1000
0000
0000
0001
,
0000
0001
0100
0000
0010
0000
1001
0000
,
0000
0100
0000
0010
0000
1000
0000
1000
,
0000
0001
0000
0000
0100
0000
0010
0000
,
1000
1000
0100
0010
,
0001
0100
1000
0100
,
0001
1000
1010
0001
,
0100
0010
1001
0010
,
0100
1100
0001
0100
,
0020
0000
0000
0030
,
2000
0000
3001
0000
0100
1000
0100
0000
,
0020
0000
0031
0000
0100
0010
0100
0000
,
2000
0000
3001
0000
0010
0100
1000
0000
,
0010
0000
0100
0000
0001
1000
0001
0000
,
0200
0000
1300
0000
0010
0001
0010
0000
,
0002
0000
1003
0000
0010
0100
0010
0000
,
0200
0000
1300
0000
0001
0010
0100
0000
,
0000
0000
1000
0100
0000
0001
0100
0010
,
0000
0000
0000
0000
0000
0000
0000
0110
,
0100
0000
0001
0000
1000
0100
1100
0000
,
0001
0000
0010
0000
0100
1000
1001
0000
,
0100
0000
0010
0000
0001
0100
0101
0000
,
1000
0000
0010
0000
0001
1000
1001
0000
,
0011
0000
0100
0000
1000
0010
1010
0000
,
0100
0000
0001
0000
0010
0100
0110
0000
,
1000
0000
0001
0000
0100
1000
1100
0000
,
0010
0000
0001
0000
0100
0010
0110
1001
;

//---------------dance-double - ----------------
#NOTES:
     dance-double:
     :
     Hard:
     12:
     0.901,0.781,0.787,0.017,0.992,643.000,92.000,2.000,0.000,1.000:
00000000
00000000
00000000
00000000
,
00000000
00000000
00000000
00000000
,
01000000
00000000
00001000
00000000
00010000
00000000
00000100
00000000
00001000
00000010
00001000
00000100
00010000
00000000
00000000
00000000
,
00001000
00010000
00000000
00010000
00100000
00000000
00100000
01000000
00000000
01000000
10000000
00010000
10010000
00000000
00000000
00000000
,
01000000
00000000
00001000
00010000
00000000
00000100
00010000
00000100
00000010
00000000
00000001
00001000
00000000
00000100
00010000
00001000
,
00010000
00000000
00100000
01000000
10000000
00000000
01000000
00100000
00010000
00000000
00001000
00000000
00000100
00000010
00000100
00000010
,
00000001
00000000
00001000
00000100
00000000
00000100
00010000
00000000
00001000
00100000
01000000
00000000
10000000
00100000
00010000
00000000
,
00001000
00000100
00000010
00000000
00000001
00000000
00001001
00000000
00000100
00000000
00010000
00001000
00100000
00000000
01100000
00000000
,
10000000
01000000
00000000
00010000
00001000
00000000
00000010
00000001
00000000
00001000
00000100
00000000
00010100
00000000
00010000
00000000
,
00001000
01000000
00001000
00100000
00010000
00000000
10000000
00000000
01000000
00100000
00000000
00010000
00001000
00000000
00000100
00000000
,
00000010
00000001
00000010
00000100
00001000
00000000
00010000
00000000
00100000
00000000
11000000
00000000
10010000
00000000
01000000
00000000
,
00001000
00010000
00000100
00000000
00001000
00000010
00000000
00001000
00000001
00000000
00000100
00000000
00011000
00000000
00000000
00000000
,
00100000
00000000
01000000
00000000
10000000
01000000
00000000
00100000
00100000
00000000
00010000
00000000
00001000
00000100
00000000
00000010
,
00000010
00000000
00000001
00000000
00000100
00001000
00000000
00100000
00100000
00000000
01000000
00000000
10000000
00010000
00100000
00001000
,
00010000
00010000
00000100
00000000
00001000
00000010
00000000
00000100
00000100
00000000
00000001
00000100
00001000
00000000
00011000
00000000
,
00100000
01000000
10000000
00000000
10000000
00000000
00010000
00000000
00100000
00001000
00000010
00000000
00000100
00000000
00000101
00000000
,
00001000
00000000
00000010
00010000
00000000
00001000
00010000
00000000
00100000
01000000
10000000
00000000
00010000
00000000
01000000
00100000
,
00010000
00000000
00001000
00001000
00000100
00000000
00000010
00000001
00000010
00000100
00001000
00010000
01000000
00000000
10000000
00000000
,
00100000
01000000
00001000
00000000
00010000
00000000
00000100
00000000
00001100
00000000
00001010
00000000
00000100
00000001
00000100
00000000
,
00000001
00001000
00001000
00000100
00010000
00010000
00001000
01000000
01000000
00100000
10000000
01000000
10010000
00000000
00000000
00000000
,
01010000
00000000
01010000
00000000
01100000
00000000
00100000
00000000
00010000
00001000
00000000
00010000
00000100
00000000
00001000
00000010
,
00000110
00000000
00000101
00000000
00000101
00000000
00001000
00000000
00010000
00100000
00000000
01000000
10000000
00000000
10000000
00010000
,
00110000
00000000
00101000
00000000
00110000
00000000
01000000
00000000
10000000
00100000
00000000
01000000
00001000
00000000
00010000
00000100
,
00001100
00000000
00001010
00000000
00000110
00000000
00000001
00000000
00000100
00000010
00000000
00000100
00001000
00000000
00010000
00100000
,
01100000
00000000
11000000
00000000
10010000
00000000
01000000
00000000
00100000
00010000
00000000
00001000
00010000
00000000
01000000
00100000
,
10100000
00000000
10010000
00000000
01010000
00000000
00001000
00000000
00010000
00000010
00000000
00000100
00000001
00000000
00000010
00000100
,
00001100
00000000
00011000
00000000
00110000
00000000
00100000
00000000
01000000
10000000
00000000
01000000
00100000
00000000
00010000
00001000
,
00000000
00000000
00000100
00001000
00010000
00000100
00001000
00010000
00000100
00001000
00010000
00000100
00001000
00011000
00000000
00000000
,
00100000
00100000
00100000
00000000
10000000
00000000
11000000
00000000
00010000
00001000
00000100
00000010
00000001
00000000
00001001
00000000
,
00000100
00001000
00010000
00100000
01000000
10000000
10000000
10000000
00100000
00000000
01000000
00000000
00011000
00000000
00000000
00000000
,
00100100
00000000
00011000
00000000
01000000
01000000
00000100
00000100
01000000
01000000
00000100
00000100
01000000
01000000
00000100
00000000
,
00022000
00000000
00000000
01000100
00033000
00000000
00110000
00000000
,
10000000
00010000
00001000
00000000
00010000
00001000
00000001
00000000
00000100
00000010
00010000
00001000
00100000
01000000
10000000
00000000
,
10010000
00000000
01000000
00100000
00010000
00001000
00000100
00000010
00001001
00000000
00001100
00000000
00001001
00000000
00000101
00000000
,
00000100
00001000
00010000
00100000
01000000
10000000
01000000
00100000
10000000
01000000
00100000
00010000
01010000
00000000
00001000
00000000
,
00011000
00000000
00001100
00000000
00000010
00001000
00000100
00010000
00001000
00100000
00010000
00001000
00011000
00000000
00000000
00000000
,
01000000
00100000
01000000
00000000
00001000
00010000
00000000
00001000
00000100
00000000
00000010
00000000
00000001
00001000
00000001
00000100
,
00010000
00001000
00100000
00000000
01000000
10000000
01000000
00100000
00001000
00000000
00010000
00000100
00000000
00010000
00000010
00000000
,
00001000
00000100
00001000
00010000
00100000
01000000
10000000
00000000
10010000
00000000
00100000
00000000
00011000
00000000
00000000
00001000
,
00000100
00000010
00000001
00000000
00001001
00000000
00000100
00000000
00011000
00000000
00100000
00000000
10010000
00000000
01000000
00000000
,
01100000
00100000
00000000
00010000
00001000
00000000
00000100
00000010
00000001
00000001
00000010
00000100
00001000
00000010
00010000
00001000
,
00100000
00000000
01000000
00000000
10000000
01000000
00010000
00000000
00001000
00000100
00000001
00000000
00000001
00000100
00001000
00000000
,
00010000
01000000
10000000
00000000
00100000
01000000
00001000
00000000
00011000
00000000
00010100
00000000
00000010
00000000
00000001
00000000
,
00001000
00001000
00000100
00010000
00010000
00001000
00100000
01000000
10000000
00010000
01000000
00001000
00011000
00000000
00000000
00000000
,
01100000
00000000
10100000
00000000
11000000
00000000
00010000
00000000
00001000
00000100
00000000
00000010
00000001
00000000
00001000
00000010
,
00010010
00000000
00011000
00000000
00101000
00000000
00100000
00000000
01000000
10000000
00000000
01000000
00100000
00000000
00010000
00001000
,
00011000
00000000
00001100
00000000
00000110
00000000
00000001
00000000
00001000
00000010
00000000
00001000
00010000
00000000
00100000
01000000
,
11000000
00000000
10010000
00000000
01010000
00000000
01000000
00000000
00100000
00010000
00000000
00001000
00000100
00000000
00000010
00000001
,
00001001
00000000
00001100
00000000
00010100
00000000
00001000
00000000
00100000
01000000
00000000
10000000
00010000
00000000
01000000
00001000
,
00011000
00000000
00010100
00000000
00000110
00000000
00000001
00000000
00001000
00000100
00000000
00001000
00010000
00000000
00100000
01000000
,
11000000
00000000
10010000
00000000
00011000
00000000
00100000
00000000
00000100
00001000
00000000
00000010
00010000
00000000
00001000
00100000
,
00000000
00000000
01000000
00000100
00010000
00001000
01000000
00000100
00010000
00001000
01000000
00000100
00010000
00001000
01000000
01000100
,
00000000
00000000
00000000
00000000
00000000
00000000
00000000
10010000
,
10000000
01000000
00100000
00001000
00010000
00000100
00001000
00000001
00000100
00001000
00010000
00100000
00110000
00000000
00000000
00000000
,
01000000
00100000
10000000
01000000
00010000
00001000
00000100
00000010
00000001
00001000
00000010
00010000
00011000
00000000
00000000
00000000
,
00100000
01000000
00001000
00010000
00000010
00000100
00000001
00000010
00000100
00001000
00010000
00100000
01100000
00000000
00000000
00000000
,
10000000
01000000
00010000
00001000
00000100
00000010
00000001
00000100
00001000
00010000
00010000
00100000
01100000
00000000
00000000
00000000
,
10000000
01000000
00010000
00001000
00000100
00000010
00010000
00001000
00100000
01000000
10000000
00010000
00110000
00000000
00000000
00000000
,
00000100
00001000
00000010
00010000
00001000
01000000
00100000
10000000
01000000
00010000
00001000
00000100
00000110
00000000
00000000
00000000
,
00000001
00000100
00000010
00010000
00001000
00100000
01000000
10000000
00010000
01000000
00001000
00010000
00010100
00000000
00000000
00000000
,
00000010
00001000
00010000
01000000
00100000
10000000
01000000
00100000
00001000
00010000
00000100
00001000
00001010
00000000
00010001
00000000
;

//---------------dance-double - ----------------
#NOTES:
     dance-double:
     :
     Challenge:
     13:
     1.000,0.859,1.000,0.017,1.000,708.000,124.000,2.000,0.000,2.000:
00000000
00000000
00000000
00000000
,
00000000
00000000
00000000
00000000
,
01001000
00000000
00001000
00000000
00010000
00001000
00000100
00000001
00001000
00000010
00001000
00000100
00010000
00001000
00000000
00000000
,
00001000
00010000
00001000
00010000
00100000
00000000
00100000
01000000
00000000
01000000
10000000
00010000
10010000
00000000
00000000
00000000
,
01000000
00001000
00001000
00010000
00000000
00000100
00010000
00000100
00000010
00000000
00000001
00001000
00001000
00000100
00010000
00001000
,
00011000
00000000
00100000
01000000
10000000
00000000
01000000
00100000
00010000
00000000
00011000
00000000
00000100
00000010
00000100
00000010
,
00000001
00000100
00001000
00000100
00001000
00000100
00010000
00000000
00001000
00100000
01000000
00000000
11000000
00100000
00010000
00000000
,
00001000
00000100
00000110
00000000
00000001
00000010
00001001
00000000
00000100
00000000
00010000
00001000
00100000
01000000
01100000
00000000
,
10000000
01000000
00100000
00010000
00001000
00000100
00000010
00000001
00000000
00001000
00000100
00001000
00010100
00000000
00010000
00100000
,
00001000
01000000
00001000
00100000
00010000
01000000
10000000
10000000
01000000
00100000
00000000
00010000
00001000
00000000
00000100
00000000
,
00000010
00000001
00000010
00000100
00001000
00010000
00110000
00000000
00100000
00000000
11000000
00000000
10010000
00000000
01000000
00100000
,
00001000
00010000
00000100
00000000
00001000
00000010
00000100
00001000
00000001
00000010
00000100
00001000
00011000
00000000
00000000
00000000
,
00110000
00000000
01000000
00000000
10000000
01000000
00000000
00100000
00100000
00000000
00010000
00000010
00001000
00000100
00000000
00000010
,
00000010
00000000
00000001
00000010
00000100
00001000
00000000
00100000
00100000
00000000
01000000
00100000
10000000
00010000
00100000
00001000
,
00010000
00010000
00000100
00001000
00001000
00000010
00000000
00000100
00000100
00000010
00000001
00000100
00001000
00000000
00011000
00000000
,
00100000
01000000
10000000
00010000
10000000
01000000
00010000
00001000
00100000
00001000
00000010
00000001
00000100
00000000
00000101
00000000
,
00001001
00000000
00000010
00010000
00000100
00001000
00010000
00000000
00100000
01000000
10000000
00000000
10010000
00000000
01000000
00100000
,
00010000
00000000
00011000
00001000
00000100
00000000
00000010
00000001
00000010
00000100
00001000
00010000
01000000
00000000
10000000
01000000
,
00100000
01000000
00001000
00000000
00010000
00000000
00000100
00000000
00001100
00000000
00001010
00000000
00000100
00000001
00000100
00000001
,
00000001
00001000
00001000
00000100
00010000
00010000
00001000
01000000
01000000
00100000
10000000
01000000
10010000
00000000
00000000
00000000
,
01010000
00000000
01010000
00000000
01100000
00000000
10100000
00000000
00010000
00001000
00000000
00010000
00000100
00000000
00001000
00000010
,
00000110
00000000
00000101
00000000
00000101
00000000
00001010
00000000
00010000
00100000
00000000
01000000
10000000
00000000
10000000
00010000
,
00110000
00000000
00101000
00000000
00110000
00000000
01010000
00000000
10000000
00100000
00000000
01000000
00001000
00000000
00010000
00000100
,
00001100
00000000
00001010
00000000
00000110
00000000
00001001
00000000
00000100
00000010
00000000
00000100
00001000
00000000
00010000
00100000
,
01100000
00000000
11000000
00000000
10010000
00000000
01001000
00000000
00100000
00010000
00000000
00001000
00010000
00000000
01000000
00100000
,
10100000
00000000
10010000
00000000
01010000
00000000
00101000
00000000
00010000
00000010
00000000
00000100
00000001
00000000
00000010
00000100
,
00001100
00000000
00011000
00000000
00110000
00000000
01100000
00000000
01000000
10000000
00000000
01000000
00100000
00000000
00010000
00001000
,
00010100
00000000
00000100
00001000
00010000
00000100
00001000
00010000
00000100
00001000
00010000
00000100
00001000
00011000
00000000
00000000
,
00110000
00100000
00100000
01000000
10000000
00000000
11000000
00100000
00010000
00001000
00000100
00000010
00000001
00000100
00001001
00000000
,
00000100
00001000
00010000
00100000
01000000
10000000
10000000
10000000
00100000
00000000
01000000
00001000
00011000
00000000
00000000
00000000
,
00100100
00000000
00011000
00000000
01000000
01000000
00000100
00000100
01000000
01000000
00000100
00000100
01000000
01000000
00000100
00000100
,
00022000
00000000
00000000
01000100
00033000
00000000
00110000
01000000
,
10000000
00010000
00001000
00000000
00010000
00001000
00000001
00000000
00000100
00000010
00010000
00001000
00100000
01000000
10000000
00010000
,
10010000
00000000
11000000
00100000
00010000
00001000
00000100
00000010
00001001
00000000
00001100
00000000
00001001
00000000
00000101
00001000
,
00000100
00001000
00010000
00100000
01000000
10000000
01000000
00100000
10000000
01000000
00100000
00010000
01010000
00000000
00001000
00010000
,
00011000
00000000
00001100
00000000
00000010
00001000
00000100
00010000
00001000
00100000
00010000
00001000
00011000
00000000
00000000
00000000
,
01010000
00100000
01000000
00000000
00001000
00010000
00000100
00001000
00000100
00000000
00000010
00000000
00000001
00001000
00000001
00000100
,
00010000
00001000
00100000
00010000
01000000
10000000
01000000
00100000
00001000
00000000
00010000
00000100
00001000
00010000
00000010
00000000
,
00001000
00000100
00001000
00010000
00100000
01000000
10000000
00000000
10010000
00000000
00110000
00000000
00011000
00000000
00000000
00001000
,
00000100
00000010
00000001
00000000
00001001
00000000
00000100
00000000
00011000
00000000
00100000
01000000
10010000
00000000
01000000
00000000
,
01100000
00100000
00001000
00010000
00001000
00000000
00000100
00000010
00000001
00000001
00000010
00000100
00001000
00000010
00010000
00001000
,
00100000
00010000
01000000
00000000
10000000
01000000
00010000
00000000
00001000
00000100
00000001
00000100
00000001
00000100
00001000
00000000
,
00010000
01000000
10000000
00000000
00100000
01000000
00001000
00000000
00011000
00000000
00010100
00000000
00000010
00000000
00000011
00000000
,
00001001
00001000
00000100
00010000
00010000
00001000
00100000
01000000
10000000
00010000
01000000
00001000
00011000
00000000
00000000
00000000
,
01100000
00000000
10100000
00000000
11000000
00000000
00110000
00000000
00001000
00000100
00000000
00000010
00000001
00000000
00001000
00000010
,
00010010
00000000
00011000
00000000
00101000
00000000
01100000
00000000
01000000
10000000
00000000
01000000
00100000
00000000
00010000
00001000
,
00011000
00000000
00001100
00000000
00000110
00000000
00000011
00000000
00001000
00000010
00000000
00001000
00010000
00000000
00100000
01000000
,
11000000
00000000
10010000
00000000
01010000
00000000
01100000
00000000
00100000
00010000
00000000
00001000
00000100
00000000
00000010
00000001
,
00001001
00000000
00001100
00000000
00010100
00000000
00011000
00000000
00100000
01000000
00000000
10000000
00010000
00000000
01000000
00001000
,
00011000
00000000
00010100
00000000
00000110
00000000
00000011
00000000
00001000
00000100
00000000
00001000
00010000
00000000
00100000
01000000
,
11000000
00000000
10010000
00000000
00011000
00000000
00101000
00000000
00000100
00001000
00000000
00000010
00010000
00000000
00001000
00100000
,
00011000
00000000
01000000
00000100
00010000
00001000
01000000
00000100
00010000
00001000
01000000
00000100
00010000
00001000
01000000
01011100
,
00000000
00000000
00000000
00000000
00000000
00000000
00000000
10010000
,
10000000
01000000
00100000
00001000
00010000
00000100
00001000
00000001
00000100
00001000
00010000
00100000
00110000
00000000
01000000
10000000
,
01000000
00100000
10000000
01000000
00010000
00001000
00000100
00000010
00000001
00001000
00000010
00010000
00011000
00000000
00100000
10000000
,
00100000
01000000
00001000
00010000
00000010
00000100
00000001
00000010
00000100
00001000
00010000
00100000
01100000
00000000
01000000
00100000
,
10000000
01000000
00010000
00001000
00000100
00000010
00000001
00000100
00001000
00010000
00010000
00100000
01100000
00000000
01000000
00100000
,
10000000
01000000
00010000
00001000
00000100
00000010
00010000
00001000
00100000
01000000
10000000
00010000
00110000
00000000
00001000
00010000
,
00000100
00001000
00000010
00010000
00001000
01000000
00100000
10000000
01000000
00010000
00001000
00000100
00000110
00000000
00000010
00000001
,
00000001
00000100
00000010
00010000
00001000
00100000
01000000
10000000
00010000
01000000
00001000
00010000
00010100
00000000
00010000
00001000
,
00000010
00001000
00010000
01000000
00100000
10000000
01000000
00100000
00001000
00010000
00000100
00001000
00001010
00000000
00000011
00000000
;
